۰ ۰ ۰ ۰ ۰ EXVID ۰ ۰ ۰ ۰ ۰ ۰ ۰ ۰ Filled the Archives ۰ ۰ ۰ ۰ ۰ ۰ ۰ ۰ With: ۰ ۰ ۰ ۰ ۰ ۰ ۰ ۰ ۰ ۰ E240 ۰ ۰ ۰ ۰ SP (C) 2009 ۰ ۰ ۰ G.I.Joe.Retaliation.2013.Extended.Action.Cut.BDRip.XviD-EXViD EXViD aims to iNTERNAL those releases which have been lost in the archives. EXViD aims to PRE non-internal releases which have poor sources and are likely skipped by others. http://www.imdb.com/title/tt1583421/ Subtitles: DA, DE, EN, ES, FR, IT, NL, NO, FI, SV, EN HI Date: 2013.07 Director: Jon M. Chu Genres: Action | Adventure | Sci-Fi | Thriller Plot: Framed for crimes against the country, the G.I. Joe team is terminated by the President's order, and the surviving team members face off against Zartan, his accomplices, and the world leaders he has under his influence. Cast: Dwayne Johnson ... Roadblock Jonathan Pryce ... President Byung-hun Lee ... Storm Shadow Elodie Yung ... Jinx Ray Stevenson ... Firefly D.J. Cotrona ... Flint Adrianne Palicki ... Jaye Channing Tatum ... Duke Ray Park ... Snake Eyes Luke Bracey ... Cobra Commander Walton Goggins ... Warden Nigel James Arnold Vosloo ... Zartan Joseph Mazzello ... Mouse Nick Erickson ... President Picture Double RZA ... Blind Master Stats: Format : AVI Format/Info : Audio Video Interleave File size : 1.37 GiB Duration : 2h 3mn Overall bit rate : 1 589 Kbps Writing application : VirtualDubMod 1.5.10.2 (build 2540/release) Writing library : VirtualDubMod build 2540/release Video ID : 0 Format : MPEG-4 Visual Format profile : Advanced Simple@L5 Format settings, BVOP : Yes Format settings, QPel : No Format settings, GMC : No warppoints Format settings, Matrix : Default (H.263) Muxing mode : Packed bitstream Codec ID : XVID Codec ID/Hint : XviD Duration : 2h 3mn Bit rate : 1 131 Kbps Width : 624 pixels Height : 256 pixels Display aspect ratio : 2.40:1 Frame rate : 23.976 fps Color space : YUV Chroma subsampling : 4:2:0 Bit depth : 8 bits Scan type : Progressive Bits/(Pixel*Frame) : 0.295 Stream size : 995 MiB (71%) Writing library : XviD 1.2.1 (UTC 2008-12-04) Audio ID : 1 Format : AC-3 Format/Info : Audio Coding 3 Mode extension : CM (complete main) Codec ID : 2000 Duration : 2h 3mn Bit rate mode : Constant Bit rate : 448 Kbps Channel(s) : 6 channels Channel positions : Front: L C R, Side: L R, LFE Sampling rate : 48.0 KHz Bit depth : 16 bits Stream size : 394 MiB (28%) Alignment : Split accross interleaves Interleave, duration : 42 ms (1.00 video frame) Interleave, preload duration : 500 ms Release notes: Extended Action Cut exclusively available on bluray. Runs around 12 mins longer than theatrical cut. enjoy! Looking for: 75TB+ Archives DUTCH/FLEMiSH Archives Greets: CRBS EPiSODE FiCO FLS iLS KLASSiGER LiPSYNC MADE NODLABS RUNNER SPRiNTER ASCII DONE BY XX^NFO 2oo9